منتديات داونلودز2


العودة   منتديات داونلودز2 > >

قسم الموبايل تحميل برامج وثيمات والعاب ونغمات ورنات الموبيل

اقوى عروض الويندوز و اللينكس VPS مقدمة من شبكة داونلودز2 !@!

اكونت سيرفر ويندوز اسطورى ( 8 كور بروسيسور + 32 جيجا رام + كونكشن 1 جيجا ) فقط بـ 50 جنيهأ !@!



حصريا فيلم ادرينالين لجميع انواع الموبيلات بجوده عاليه جدا

اهلا بكم ؛ حصريا على شبكة داونلودز2 فيلم ادريالين بصيغه 3gp لجميع انواع الموبيلات Screen :- لوتضيح جودة الفيلم info:-

إنشاء موضوع جديد  إضافة رد
 
أدوات الموضوع انواع عرض الموضوع
قديم 04-09-2010, 03:48 PM   #1 (permalink)
• ĞêŋęŘąl MąŋāģęŘ •
 
الصورة الرمزية Scorpion
 




 
Scorpion has a reputation beyond reputeScorpion has a reputation beyond reputeScorpion has a reputation beyond reputeScorpion has a reputation beyond reputeScorpion has a reputation beyond reputeScorpion has a reputation beyond reputeScorpion has a reputation beyond reputeScorpion has a reputation beyond reputeScorpion has a reputation beyond reputeScorpion has a reputation beyond reputeScorpion has a reputation beyond repute
إرسال رسالة عبر MSN إلى Scorpion إرسال رسالة عبر Yahoo إلى Scorpion إرسال رسالة عبر Skype إلى Scorpion

افتراضي



اهلا بكم ؛



حصريا على شبكة داونلودز2



فيلم ادريالين بصيغه

3gp



لجميع انواع الموبيلات







Screen :-



لوتضيح جودة الفيلم







info:-

الإخراج: محمود كامل [ب] (إخراج)

اشرف نار (مساعد مخرج اول)



التأليف: محمد عبدالخالق (قصة - سيناريو)



تاريخ الإصدار: 28 أكتوبر 2009 م



حالة العمل: تم عرضه



تصنيف العمل: تشويق - جريمة - درامي





ملخص القصة: تدور أحداث الفيلم حول جريمة قتل غامضة يكتشفها المقدم/ محمود أبو الليل .. جثة مشوهة مجهولة الملامح ... يبدأ التحقيق بالاشتراك مع فريق البحث ، ومن خلال التحقيق يكتشف مخاوف الشخصيات المتورطة في الجريمة ويكتشف سر الأدرينالين في حياتهم













Format : MPEG-4

Format profile : 3GPP Media Release 4

Codec ID : 3gp4

File size : 99.8 MiB

Duration : 1h 49mn

Overall bit rate : 127 Kbps



Video

ID : 1

Format : MPEG-4 Visual

Format profile : Simple@L1

Format settings, BVOP : No

Format settings, QPel : No

Format settings, GMC : No warppoints

Format settings, Matrix : Default (H.263)

Codec ID : 20

Duration : 1h 49mn

Bit rate mode : Variable

Bit rate : 112 Kbps

Width : 320 pixels

Height : 240 pixels

Display aspect ratio : 4:3

Frame rate mode : Constant

Frame rate : 14.985 fps

Resolution : 8 bits

Colorimetry : 4:2:0

Scan type : Progressive

Bits/(Pixel*Frame) : 0.097

Stream size : 87.8 MiB (88%)

Writing library : Lavc51.57.2



Audio

ID : 2

Format : AMR

Format/Info : Adaptive Multi-Rate

Format profile : Narrow band

Codec ID : samr

Duration : 1h 49mn

Bit rate mode : Constant

Bit rate : 12.8 Kbps

Channel(s) : 1 channel

Sampling rate : 8 000 Hz

Resolution : 13 bits

Stream size : 10.0 MiB (10%)

Writing library : FFMpeg






التحميل

Download



--------------



Megaupload

http://short.downloadiz2.com/40846



RapidShare

http://short.downloadiz2.com/40849



Hotfile

http://short.downloadiz2.com/40847



FileFactory

http://short.downloadiz2.com/40853



Badongo

http://short.downloadiz2.com/40851



2shared

http://short.downloadiz2.com/40850



QuickUpload.Net

http://short.downloadiz2.com/40848



DepositFiles.Com

http://short.downloadiz2.com/40852











التوقيع








For Uploder
Short Link | Up Imag | Help Uploder
Scorpion غير متواجد حالياً   رد مع اقتباس
قديم 04-09-2010, 04:55 PM   #2 (permalink)
عضو ذهبى
 




 
dager على طريق التميز

افتراضي


اصلى يا بوب تسلم ايديكــ ــ



التوقيع Follow Me On Twitter
dager غير متواجد حالياً   رد مع اقتباس
قديم 04-09-2010, 11:11 PM   #3 (permalink)
مراقب سابق !
 
الصورة الرمزية Samurai
 




 
Samurai على طريق التميز

افتراضي


برنس يا عصام



التوقيع

Samurai غير متواجد حالياً   رد مع اقتباس
قديم 04-13-2010, 07:53 PM   #4 (permalink)
Stars Downloadiz2 !
 




 
دودى الحب على طريق التميز

افتراضي


تسلم ايدك يا باشااااااااااااااااااااااااااااااااا



دودى الحب غير متواجد حالياً   رد مع اقتباس
إنشاء موضوع جديد  إضافة رد

مواقع النشر (المفضلة)

جديد مواضيع قسم قسم الموبايل

أدوات الموضوع
انواع عرض الموضوع

تعليمات المشاركة
لا تستطيع إضافة مواضيع جديدة
لا تستطيع الرد على المواضيع
لا تستطيع إرفاق ملفات
لا تستطيع تعديل مشاركاتك

BB code is متاحة
كود [IMG] متاحة
كود HTML معطلة
Trackbacks are معطلة
Pingbacks are معطلة
Refbacks are معطلة



الساعة الآن 10:04 AM


منتديات داونلودز2

RSS RSS 2.0 XML MAP HTML
 

 

   Downloadiz2.Com - Powered by vBulletin® Copyright ©2000 - 2018, Jelsoft Enterprises Ltd